CAM Venom | xmovies8 | Films Full BluRay








Info

A Second Childhood


6.3
IMDB: 6.3/10 210 votes

Durata: 98 min

Released:

Anno: 08 Oct 2010

Direttore:

Premi: 3 wins & 3 nominations.

Stato: Released

Paese: Italy

Cast:




Lino Settembre e sua moglie Chicca vivono una vita coniugale serena, priva di gravi turbolenze, entrambi soddisfatti della professione che svolgono: lui prima firma della redazione sportiva de Il Messaggero e lei docente di Filologia medievale alla Gregoriana. L’unica angustia che ha accompagnato i venticinque anni del loro matrimonio la mancanza di figli. Mancanza che anziché rischiare di compromettere la loro unione l’ha misteriosamente rinsaldata. L’oggi però, in modo totalmente inatteso, riserva loro un’occasione di somma preoccupazione. Lino, da qualche tempo, accusa problemi di memoria, che via via si accentuano andando a compromettere in modo sempre più evidente il quotidiano svolgersi delle sua attività sia nell’ambito professionale che familiare. Dapprima sia lui che Chicca decidono di riderne ma il disturbo va ad imporsi con sempre più esplicita evidenza fino a quando, alla luce di attenti, approfonditi esami, un neurologo diagnostica una patologia degenerativa delle cellule cerebrali. Prende così avvio una storia d’amore commoventissima fra un uomo che via via si allontana dal presente, la sua mente trascinata in infiniti altrovi, e la sua donna che rifiutando qualsiasi ipotesi di abbandono, qualsiasi ausilio che la escluda, decide di stargli accanto “regredendo” con lui fino alla sua più remota infanzia.

Trailer


Upload on Youtube

Info File

General
Complete name : S:\Una.Sconfinata.Giovinezza.2010.iTALiAN.DVDRip.XviD-C0p\Una.Sconfinata.Giovinezza.2010.iTALiAN.DVDRip.XviD-C0p.avi
Format : AVI
Format/Info : Audio Video Interleave
File size : 705 MiB
Duration : 1h 33mn
Overall bit rate mode : Variable
Overall bit rate : 1 053 Kbps
Writing application : VirtualDubMod 1.5.10.2 (build 2540/release)
Writing library : VirtualDubMod build 2540/release

Video
ID : 0
Format : MPEG-4 Visual
Format profile : Advanced [email protected]
Format settings, BVOP : 2
Format settings, QPel : No
Format settings, GMC : No warppoints
Format settings, Matrix : Default (MPEG)
Codec ID : XVID
Codec ID/Hint : XviD
Duration : 1h 33mn
Bit rate : 909 Kbps
Width : 624 pixels
Height : 256 pixels
Display aspect ratio : 2.40:1
Frame rate : 25.000 fps
Color space : YUV
Chroma subsampling : 4:2:0
Bit depth : 8 bits
Scan type : Progressive
Compression mode : Lossy
Bits/(Pixel*Frame) : 0.228
Stream size : 609 MiB (86%)
Writing library : XviD 1.2.1 (UTC 2008-12-04)

Audio
ID : 1
Format : MPEG Audio
Format version : Version 1
Format profile : Layer 3
Mode : Joint stereo
Mode extension : MS Stereo
Codec ID : 55
Codec ID/Hint : MP3
Duration : 1h 33mn
Bit rate mode : Variable
Bit rate : 128 Kbps
Channel(s) : 2 channels
Sampling rate : 48.0 KHz
Compression mode : Lossy
Stream size : 87.7 MiB (12%)
Alignment : Aligned on interleaves
Interleave, duration : 24 ms (0.60 video frame)
Interleave, preload duration : 167 ms
Writing library : LAME3.90.
Encoding settings : -m j -V 4 -q 2 -lowpass 17.6 --abr 128

Trackers

http://tracker.publicbt.com:80/
http://tracker.istole.it:80/
http://open.demonii.com:1337/scrape
http://tracker.tntvillage.scambioetico.org:2710/scrape
http://tracker.coppersurfer.tk:6969/scrape
http://tracker.openbittorrent.com/scrape