Cadillac Deville 85-93 Lüftungsgitter Lüftungsdüse Düse vorne mitte / Air Vent | Bakuon!! | Opinion Essay








Info

Schindler's List


8.9
IMDB: 8.9/10 917,046 votes

Durata: 195 min

Released:

Anno: 04 Feb 1994

Direttore:

Premi: Won 7 Oscars. Another 71 wins & 33 nominations.

Budget: 22000000$

Incassi: 321306305$

Stato: Released

Paese: USA

Cast:




Tratto dal libro di Thomas Keneally è la vera storia di Oscar Schindler, industriale tedesco, che nel 1938 capisce che è bene legarsi ai comandanti militari. Li frequenta nei locali notturni, offre bottiglie preziose. Quando gli ebrei sono relegati nel ghetto di Cracovia Schindler riesce a farsene assegnare alcune centinaia come operai in una fabbrica di pentole. All’inizio sembra sfruttarli, in realtà li salva.

Trailer


Upload on Youtube

Info File

Video
ID : 1
Format : HEVC
Format/Info : High Efficiency Video Coding
Format profile : [email protected]@Main
Codec ID : V_MPEGH/ISO/HEVC
Duration : 3h 15mn
Bit rate : 3 686 Kbps
Width : 1 280 pixels
Height : 694 pixels
Display aspect ratio : 1.85:1
Frame rate mode : Constant
Frame rate : 23.976 (24000/1001) fps
Color space : YUV
Chroma subsampling : 4:2:0
Bit depth : 8 bits
Bits/(Pixel*Frame) : 0.173
Stream size : 5.02 GiB (74%)
Writing library : x265 1.9:[Windows][GCC 5.2.0][64 bit] 8bit
Encoding settings : wpp / ctu=64 / min-cu-size=8 / max-tu-size=32 / tu-intra-depth=3 / tu-inter-depth=3 / me=2 / subme=4 / merange=57 / no-rect / no-amp / max-merge=3 / temporal-mvp / no-early-skip / rdpenalty=0 / no-tskip / no-tskip-fast / strong-intra-smoothing / no-lossless / no-cu-lossless / no-constrained-intra / fast-intra / open-gop / no-temporal-layers / interlace=0 / keyint=250 / min-keyint=23 / scenecut=40 / rc-lookahead=40 / lookahead-slices=0 / bframes=8 / bframe-bias=0 / b-adapt=2 / ref=5 / limit-refs=3 / limit-modes / weightp / weightb / aq-mode=3 / qg-size=32 / aq-strength=2.00 / cbqpoffs=0 / crqpoffs=0 / rd=4 / psy-rd=1.00 / rdoq-level=0 / psy-rdoq=0.00 / signhide / deblock=-1:-1 / sao / no-sao-non-deblock / b-pyramid / no-cutree / no-intra-refresh / rc=crf / crf=22.2 / qcomp=0.60 / qpmin=0 / qpmax=51 / qpstep=4 / vbv-maxrate=12000 / vbv-bufsize=12000 / crf-max=0.0 / ipratio=1.40 / pbratio=1.30
Language : English
Default : Yes
Forced : No
Color range : Limited
Matrix coefficients : BT.709

Audio #1
ID : 2
Format : AC-3
Format/Info : Audio Coding 3
Mode extension : CM (complete main)
Format settings, Endianness : Big
Codec ID : A_AC3
Duration : 3h 15mn
Bit rate mode : Constant
Bit rate : 640 Kbps
Channel(s) : 6 channels
Channel positions : Front: L C R, Side: L R, LFE
Sampling rate : 48.0 KHz
Frame rate : 31.250 fps (1536 spf)
Compression mode : Lossy
Stream size : 893 MiB (13%)
Title : AC3 5.1
Language : Italian
Default : Yes
Forced : No

Trackers

http://tracker.istole.it:80/
http://tracker.publicbt.com:80/
http://tracker.tntvillage.scambioetico.org:2710/scrape
http://open.demonii.com:1337/scrape
http://tracker.coppersurfer.tk:6969/scrape
http://tracker.openbittorrent.com/scrape