Textures | Sendhil Ramamurthy | Visual Studio 2017 Enterprise ISO + Serial Keys








Info

Armageddon


6.6
IMDB: 6.6/10 334,420 votes

Durata: 151 min

Released:

Anno: 01 Jul 1998

Direttore:

Premi: Nominated for 4 Oscars. Another 14 wins & 35 nominations.

Budget: 140000000$

Incassi: 553799566$

Stato: Released

Paese: USA

Tagline: PER L'AMORE. PER L'ONORE. PER L'UMANITÀ.

Cast:




Quando il direttore esecutivo della NASA, Dan Truman, apprende che la terra ha solamente 18 giorni a disposizione prima che venga completamente distrutta da una meteora grande quanto il Texas, ha solo una possibilità per la salvezza del pianeta: far atterrare sull’asteroide il miglior team di trivellatori petroliferi e permettere loro di installare le testate nucleari che annienteranno l’obiettivo.

Trailer


Upload on Youtube

Info File

Video
ID : 1
Format : HEVC
Format/Info : High Efficiency Video Coding
Format profile : [email protected]@Main
Codec ID : V_MPEGH/ISO/HEVC
Duration : 2h 30mn
Bit rate : 3 270 Kbps
Width : 1 920 pixels
Height : 800 pixels
Display aspect ratio : 2.40:1
Frame rate mode : Constant
Frame rate : 23.976 (24000/1001) fps
Color space : YUV
Chroma subsampling : 4:2:0
Bit depth : 8 bits
Bits/(Pixel*Frame) : 0.089
Stream size : 3.45 GiB (77%)
Writing library : x265 1.5:[Windows][GCC 4.9.0][64 bit]
Encoding settings : wpp / ctu=64 / tu-intra-depth=1 / tu-inter-depth=1 / me=1 / subme=2 / merange=57 / no-rect / no-amp / max-merge=2 / temporal-mvp / no-early-skip / no-fast-cbf / rdpenalty=0 / no-tskip / no-tskip-fast / strong-intra-smoothing / no-lossless / no-cu-lossless / no-constrained-intra / no-fast-intra / open-gop / interlace=0 / keyint=240 / min-keyint=24 / scenecut=40 / rc-lookahead=20 / bframes=4 / bframe-bias=0 / b-adapt=2 / ref=3 / weightp / no-weightb / aq-mode=1 / aq-strength=1.00 / cbqpoffs=0 / crqpoffs=0 / rd=3 / psy-rd=0.30 / psy-rdoq=0.00 / signhide / lft / sao / no-sao-non-deblock / b-pyramid / cutree / rc=crf / crf=20.0 / qcomp=0.60 / qpmin=0 / qpmax=51 / qpstep=4 / ipratio=1.40 / pbratio=1.30
Default : Yes
Forced : No
Color range : Limited
Color primaries : BT.709
Transfer characteristics : BT.709
Matrix coefficients : BT.709
Statistics Tags Issue : mkvmerge v8.9.0 ('Father Daughter') 64bit 2016-04-05 08:22:45 / mkvmerge v8.9.0 ('Father Daughter') 64bit 2016-04-05 08:22:45 / UTC
FromStats_BitRate : 3352697
FromStats_Duration : 02:30:50.208000000
FromStats_FrameCount : 216988
FromStats_StreamSize : 3792826694

Audio #1
ID : 2
Format : AC-3
Format/Info : Audio Coding 3
Mode extension : CM (complete main)
Format settings, Endianness : Big
Codec ID : A_AC3
Duration : 2h 30mn
Bit rate mode : Constant
Bit rate : 448 Kbps
Channel(s) : 6 channels
Channel positions : Front: L C R, Side: L R, LFE
Sampling rate : 48.0 KHz
Frame rate : 31.250 fps (1536 spf)
Compression mode : Lossy
Delay relative to video : -83ms
Stream size : 483 MiB (11%)
Title : Italiano AC3 5.1 448 kbps - [email protected]
Language : Italian
Default : Yes
Forced : No
Statistics Tags Issue : mkvmerge v8.9.0 ('Father Daughter') 64bit 2016-04-05 08:22:45 / mkvmerge v8.9.0 ('Father Daughter') 64bit 2016-04-05 08:22:45 / UTC
FromStats_BitRate : 448000
FromStats_Duration : 02:30:50.208000000
FromStats_FrameCount : 282819
FromStats_StreamSize : 506811648

Trackers

http://tracker.istole.it:80/
http://tracker.publicbt.com:80/
http://tracker.tntvillage.scambioetico.org:2710/scrape
http://open.demonii.com:1337/scrape
http://tracker.coppersurfer.tk:6969/scrape
http://tracker.openbittorrent.com/scrape